QUALITY BLACK CABLE TIES / ZIP WRAPS LONG SHORT Thick Thin Narrow Small Fastener | Empire Square | IMDb: 8 S5E24 Castle - Season 5
[Login] or [Signup]
Login
Username:
Password:
[Signup]
[Recover Account]


Poll


You must be logged in to view polls



Torrent Details For "Fidaa (2018) 720p Hindi Dubbed WEBHD x264 AAC 1.5GB - MovCr"

Fidaa (2018) 720p Hindi Dubbed WEBHD x264 AAC 1.5GB - MovCr

Download this torrent | Magnet Download
Health:
Seeds: 177
Leechers: 30
Completed: 4,382 
Last Checked: 16-10-2018 18:49:45
External Torrent
Update Stats
Download Magnet


Poster


iMDB
Title: Fidaa
Year: 2017
Runtime: 144 minutes
Votes: 14
Rating: 9.4/10
Language: Telugu
Country: India
All Genres: Romance
Director: Sekhar Kammula

Cast:
Sai Pallavi as
Varun Tej as


Watch-Free-HD     Download

Details
Name:Fidaa (2018) 720p Hindi Dubbed WEBHD x264 AAC 1.5GB - MovCr
Description:
Our Site  URL   www.movcr.cc


Fidaa (2018) 720p Hindi Dubbed WEBHD x264 AAC 1.5GB - MovCr


 http://www.imdb.com/title/tt7159382/

 

General
Unique ID                                : 20583779333864502534821614485429325834 (0xF7C4AACC55A6422DBD7FCD71AAC900A)
Complete name                            : www.MovCr.cc - Fidaa (2018) 720p Hindi Dubbed WEBHD x264 AAC 1.5GB - MovCr.mkv
Format                                   : Matroska
Format version                           : Version 4 / Version 2
File size                                : 1.44 GiB
Duration                                 : 2 h 2 min
Overall bit rate                         : 1 683 kb/s
Movie name                               : www.MovCr.cc
Encoded date                             : UTC 2018-10-02 18:17:24
Writing application                      : mkvmerge v26.0.0 ('In The Game') 64-bit
Writing library                          : libebml v1.3.6 + libmatroska v1.4.9

Video
ID                                       : 1
Format                                   : AVC
Format/Info                              : Advanced Video Codec
Format profile                           : [email protected]
Format settings                          : CABAC / 3 Ref Frames
Format settings, CABAC                   : Yes
Format settings, RefFrames               : 3 frames
Codec ID                                 : V_MPEG4/ISO/AVC
Duration                                 : 2 h 2 min
Bit rate                                 : 1 556 kb/s
Width                                    : 1 280 pixels
Height                                   : 720 pixels
Display aspect ratio                     : 16:9
Frame rate mode                          : Constant
Frame rate                               : 25.000 FPS
Color space                              : YUV
Chroma subsampling                       : 4:2:0
Bit depth                                : 8 bits
Scan type                                : Progressive
Bits/(Pixel*Frame)                       : 0.068
Stream size                              : 1.33 GiB (92%)
Title                                    : www.MovCr.cc
Language                                 : Hindi
Default                                  : Yes
Forced                                   : No
Color range                              : Limited
Color primaries                          : BT.709
Transfer characteristics                 : BT.709
Matrix coefficients                      : BT.709

Audio
ID                                       : 2
Format                                   : AAC
Format/Info                              : Advanced Audio Codec
Format profile                           : LC
Codec ID                                 : A_AAC-2
Duration                                 : 2 h 2 min
Bit rate                                 : 126 kb/s
Channel(s)                               : 2 channels
Channel positions                        : Front: L R
Sampling rate                            : 44.1 kHz
Frame rate                               : 43.066 FPS (1024 SPF)
Compression mode                         : Lossy
Stream size                              : 110 MiB (7%)
Title                                    : www.MovCr.cc
Language                                 : Hindi
Default                                  : Yes
Forced                                   : No




 
 
 
 
 

Category:Movies > South Dub
Lang:Hindi
Total Size:1.44 GB
Info Hash:d94413625f8f01a5aafb223cc87e0dce0d2c25d9
Added By:MAZE
Date Added:02-10-2018 19:25:53
Views:4,664
Hits:256

Download Torrent

Ratings:Not Yet Rated (Log in to rate it)


Tracker:
udp://tracker.coppersurfer.tk:6969/announce


File List: 


Comments

No comments still posted

Powered by 10 Hamsters v2-svn -|- Page Generated In 1.021631 secs.
-|- RSS FEED
Theme By: Nikkbu