[Login] or [Signup]
Login
Username:
Password:
[Signup]
[Recover Account]


Poll


You must be logged in to view polls



Torrent Details For "Thugs of Hindostan 2018 Hindi 720p PRE-DVDRip x264 AAC { TaRa }.mkv"

Thugs of Hindostan 2018 Hindi 720p PRE-DVDRip x264 AAC { TaRa }.mkv

Download this torrent | Magnet Download
Health:
Seeds: 485
Leechers: 659
Completed: 1,485 
Last Checked: 08-11-2018 19:42:06
External Torrent
Update Stats
Download Magnet


Poster


iMDB
Title: Thugs of Hindostan
Year: 2018
Runtime: 164 minutes
Votes: 381
Rating: 5.3/10
Language: Hindi, Tamil, Telugu
Director: Vijay Krishna Acharya
Writing By: Vijay Krishna Acharya,
Produced By: Winston Azzopardi,Aditya Chopra,Kulthep Narula,Bharat Rawail,Sanjay Shivalkar,Aashish Singh,Gurpreet Singh,
Music: John Stewart Eduri
Cast:
Amitabh Bachchan as Khudabaksh
Aamir Khan as Firangi
Katrina Kaif as Suraiyya
Fatima Sana Shaikh as Zafira
Lloyd Owen as John Clive
Ronit Roy as
Abdul Quadir Amin as Azhar Ali
Jean-Charles Andrieux as Sam
Saaquib Ayubi as Rebel
Mohammed Zeeshan Ayyub as
Trailers:
Thugs of Hindostan Trailer


Watch-Free-HD     Download

Details
Name:Thugs of Hindostan 2018 Hindi 720p PRE-DVDRip x264 AAC { TaRa }.mkv
Description:

Thugs of Hindostan 2018 Hindi 720p PRE-DVDRip x264 AAC { TaRa }.mkv
 

===================================================================
General
Complete name               : Thugs of Hindostan 2018 Hindi 720p PRE-DVDRip x264 AAC { TaRa }.mkv
Format                      : Matroska
Format version              : Version 4
File size                   : 1.33 GiB
Duration                    : 2 h 30 min
Overall bit rate            : 1 264 kb/s
===================================================================
Video
ID                          : 1
Format                      : AVC
Format/Info                 : Advanced Video Codec
Format profile              : [email protected]
Format settings             : CABAC / 4 Ref Frames
Format settings, CABAC      : Yes
Format settings, ReFrames   : 4 frames
Codec ID                    : V_MPEG4/ISO/AVC
Duration                    : 2 h 30 min
Bit rate                    : 1 181 kb/s
Nominal bit rate            : 1 498 kb/s
Width                       : 1 280 pixels
Height                      : 544 pixels
Display aspect ratio        : 2.35:1
Frame rate mode             : Variable
Frame rate                  : 23.976 (24000/1001) FPS
Color space                 : YUV
Chroma subsampling          : 4:2:0
Bit depth                   : 8 bits
Scan type                   : Progressive
Bits/(Pixel*Frame)          : 0.071
Stream size                 : 1.24 GiB (93%)
Title                       : .....::::: TaRa :::::.....
Language                    : Hindi
Default                     : Yes
Forced                      : No
===================================================================
Audio
ID                          : 2
Format                      : AAC LC
Format/Info                 : Advanced Audio Codec Low Complexity
Codec ID                    : A_AAC-2
Duration                    : 2 h 30 min
Bit rate                    : 80.3 kb/s
Channel(s)                  : 2 channels
Channel layout              : L R
Sampling rate               : 44.1 kHz
Frame rate                  : 43.066 FPS (1024 SPF)
Compression mode            : Lossy
Delay relative to video     : -23 ms
Stream size                 : 86.6 MiB (6%)
Title                       : .....::::: TaRa :::::.....
Language                    : Hindi
Default                     : Yes
Forced                      : No
===================================================================


 
 
 
 
 
 
 
 
 
 
 
 
 
 












 



Category:Movies > Bollywood
Lang:Hindi
Total Size:1.33 GB
Info Hash:f4863135f20a19713a6b5ee7f3ec5e3125c28b83
Added By:SkTaRa
Date Added:08-11-2018 13:11:12
Views:1,349
Hits:196

Download Torrent

Ratings:Not Yet Rated (Log in to rate it)

  


Tracker:
udp://tracker.coppersurfer.tk:6969/announce


File List: 


Comments

No comments still posted

Powered by 10 Hamsters v2-svn -|- Page Generated In 3.129828 secs.
-|- RSS FEED
Theme By: Nikkbu
Cara Giallanza | American.Gods.S01E01.Der.Knochengarten.REPACK.German.DD+51.DL.2160p.AmazonUHD.x264-TVS | Year: 2014