Les mauvais esprits Streaming HD Les mauvais esprits Streaming Full-HD Les mauvais esprits Streaming HD [1080p] gratuit en illimite - De faux médiums spécialisés dans les phénomènes paranormaux se retrouvent victimes de leur propre escroquerie quand une mission tourne soudain au cauchemar. | Kickboxer : L'héritage Franccedil;ais BDRiP | Helen Keller and Anne Sullivan
[Login] or [Signup]
Login
Username:
Password:
[Signup]
[Recover Account]


Poll


You must be logged in to view polls



Torrent Details For "The Meg 2018 x264 720p Esub BluRay Dual Audio English Hindi GOPISAHI"

The Meg 2018 x264 720p Esub BluRay Dual Audio English Hindi GOPISAHI

Download this torrent | Magnet Download
Health:
Seeds: 9
Leechers: 372
Completed:
Last Checked: 09-11-2018 15:58:58
External Torrent
Update Stats
Download Magnet


Poster
No poster


Watch-Free-HD     Download

Details
Name:The Meg 2018 x264 720p Esub BluRay Dual Audio English Hindi GOPISAHI
Description:
 http://www.gopisahi.pw/

Format                         : Matroska
Format version                 : Version 4 / Version 2
File size                      : 886 MiB
Duration                       : 1 h 53 min
Overall bit rate               : 1 094 kb/s
Movie name                     : The Meg 2018 GOPISAHI

Video
Format                         : AVC
Format/Info                    : Advanced Video Codec
Codec ID                       : V_MPEG4/ISO/AVC
Duration                       : 1 h 53 min
Bit rate                       : 899 kb/s
Width                          : 1 280 pixels
Height                         : 534 pixels
Display aspect ratio           : 2.40:1
Original display aspect ratio  : 2.40:1
Frame rate mode                : Constant
Frame rate                     : 23.976 (24000/1001) FPS
Color space                    : YUV
Chroma subsampling             : 4:2:0
Bit depth                      : 8 bits
Scan type                      : Progressive
Bits/(Pixel*Frame)             : 0.055
Stream size                    : 728 MiB (82%)
Title                          : GOPISAHI
Writing library                : x264 core 155 r2901 7d0ff22

Audio #1
Format                         : AAC
Duration                       : 1 h 53 min
Bit rate                       : 96.0 kb/s
Channel(s)                     : 2 channels
Channel positions              : Front: L R
Sampling rate                  : 48.0 kHz
Frame rate                     : 46.875 FPS (1024 SPF)
Compression mode               : Lossy
Delay relative to video        : -21 ms
Stream size                    : 78.0 MiB (9%)
Title                          : GOPISAHI
Language                       : Hindi

Audio #2
Format                         : AAC
Format/Info                    : Advanced Audio Codec
Duration                       : 1 h 53 min
Bit rate                       : 96.0 kb/s
Channel(s)                     : 2 channels
Channel positions              : Front: L R
Sampling rate                  : 48.0 kHz
Frame rate                     : 46.875 FPS (1024 SPF)
Compression mode               : Lossy
Delay relative to video        : -21 ms
Stream size                    : 77.8 MiB (9%)
Title                          : GOPISAHI
Language                       : English

Text
Language                       : English


Category:Movies > Hollywood Dub
Lang:Hindi
Total Size:886.00 MB
Info Hash:ff2e66c1fcb6bf21f58d7339415244d4a61c3992
Added By:gopisahi
Date Added:09-11-2018 13:36:48
Views:168
Hits:19

Download Torrent

Ratings:Not Yet Rated (Log in to rate it)


Tracker:
udp://tracker.coppersurfer.tk:6969/announce


File List: 


Comments

No comments still posted

Powered by 10 Hamsters v2-svn -|- Page Generated In 0.545167 secs.
-|- RSS FEED
Theme By: Nikkbu