[Login] or [Signup]
Login
Username:
Password:
[Signup]
[Recover Account]


Poll


You must be logged in to view polls



Torrent Details For "Laila Majnu (2018) Hindi 720p WEB-HD AVC AAC-Sun George"

Laila Majnu (2018) Hindi 720p WEB-HD AVC AAC-Sun George

Download this torrent | Magnet Download
Health:
Seeds: 0
Leechers: 0
Completed:
Last Checked: 09-11-2018 14:21:56
External Torrent
Update Stats
Download Magnet


Poster


iMDB
Title: Laila Majnu
Year: 2018
Runtime: 140 minutes
Votes: 360
Rating: 8.4/10
Language: Hindi
All Genres: Drama, Romance
Director: Sajid Ali
Writing By: Imtiaz Ali,Sajid Ali,
Produced By: Preety Ali,Khawar Jamsheed,Ekta Kapoor,Ruchikaa Kapoor,Shobha Kapoor,Sunil Lulla,Nachiket Pantvaidya,Kshitij Prasad,
Music: Hitesh Sonik
Cast:
Farhana Bhat as Jasmeet
Tripti Dimri as
Sumit Kaul as Ibban
Abrar Qazi ">Abrar Qazi as Zaid
Mir Sarwar as
Avinash Tiwary as Majnu
Trailers:
Laila Majnu trailer


Watch-Free-HD     Download

Details
Name:Laila Majnu (2018) Hindi 720p WEB-HD AVC AAC-Sun George
Description:
Laila Majnu (2018) Hindi 720p WEB-HD AVC AAC-Sun George







===================================================================

General
Format                                   : Matroska
Format version                           : Version 4 / Version 2
File size                                : 1.38 GiB
Duration                                 : 2 h 12 min
Overall bit rate                         : 1 500 kb/s
Movie name : Laila Majnu (2018) Hindi 720p WEB-HD AVC AAC-Sun George

===================================================================

Video
ID                                       : 1
Format                                   : AVC
Format/Info                              : Advanced Video Codec
Format profile                           : [email protected]
Format settings                          : CABAC / 4 Ref Frames
Format settings, CABAC                   : Yes
Format settings, RefFrames               : 4 frames
Codec ID                                 : V_MPEG4/ISO/AVC
Duration                                 : 2 h 12 min
Bit rate                                 : 1 248 kb/s
Width                                    : 1 280 pixels
Height                                   : 720 pixels
Display aspect ratio                     : 16:9
Frame rate mode                          : Variable
Frame rate                               : 25.000 FPS
Color space                              : YUV
Chroma subsampling                       : 4:2:0
Bit depth                                : 8 bits
Scan type                                : Progressive
Bits/(Pixel*Frame)                       : 0.054
Stream size                              : 1.15 GiB (83%)
Title                                    : Sun George

===================================================================

Audio
ID                                       : 2
Format                                   : AAC
Format/Info                              : Advanced Audio Codec
Format profile                           : LC
Codec ID                                 : A_AAC-2
Duration                                 : 2 h 12 min
Bit rate                                 : 249 kb/s
Channel(s)                               : 2 channels
Channel positions                        : Front: L R
Sampling rate                            : 48.0 kHz
Frame rate                               : 46.875 FPS (1024 SPF)
Compression mode                         : Lossy
Stream size                              : 236 MiB (17%)
Title                                    : Sun George
Writing library                          : Lavc57.42.100 aac
Language                                 : Hindi
Default                                  : Yes
Forced                                   : No




 

 

 

 

 

 

 

 
Category:Movies > Bollywood
Lang:Hindi
Total Size:1.41 GB
Info Hash:c2a7267065c3a7e5919ab19fbb0c1fcedf7dcc48
Added By:sungeorge
Date Added:09-11-2018 14:21:56
Views:490
Hits:60

Download Torrent

Ratings:Not Yet Rated (Log in to rate it)

  


Tracker:
udp://tracker.publicbt.com:80/announce


File List: 



NFO:

Comments

No comments still posted

Powered by 10 Hamsters v2-svn -|- Page Generated In 0.897475 secs.
-|- RSS FEED
Theme By: Nikkbu
Read More | BCJK Vintage Ohrclips Clips 925 Silber Granat Perlen Trachten Schmuck Damen | Infinity Challenge Ep.327